The Vow DvdRip Audio Latino 2012

Título: Todos los días de mi vida
Título original: The Vow
País: USA
Estreno en USA: 10/02/2012
Estreno en España: 23/03/2012
Productora: Spyglass Entertainment, Screen Gems
Director: Michael Sucsy
Guión: Michael Sucsy, Abby Kohn, Marc Silverstein
Reparto: Channing Tatum, Rachel McAdams, Jessica Lange, Sam Neill, Scott Speedman, Jeananne Goossen, Sarah Carter, Dillon Casey, Wendy Crewson, Lucas Bryant, Brittney Irvin, Rachel Skarsten, Tatiana Maslany, Kristina Pesic, Jessica McNamee, Kim Roberts, Joe Cobden, Lindsay Ames, Joey Klein, Dharini Woollcombe, Shannon Edwards, Melissa Veszi, Dan Latham, Johnny Larocque
Calificación: Apta para todos los públicos
Audio: Español Latino
Género: drama, romance
Calidad: DVDRip

General
Complete name                            : t_v0w.wapintekun10.avi
Format                                   : AVI
Format/Info                              : Audio Video Interleave
File size                                : 699 MiB
Duration                                 : 1h 43mn
Overall bit rate                         : 941 Kbps
Writing library                          : VirtualDub build 30586/release
Copyright                                : SaMVideo
ID                                       : 0
Format                                   : MPEG-4 Visual
Format profile                           : Advanced Simple@L5
Format settings, BVOP                    : 3
Format settings, QPel                    : No
Format settings, GMC                     : No warppoints
Format settings, Matrix                  : Default (H.263)
Muxing mode                              : Packed bitstream
Codec ID                                 : XVID
Codec ID/Hint                            : XviD
Duration                                 : 1h 43mn
Bit rate                                 : 803 Kbps
Width                                    : 640 pixels
Height                                   : 272 pixels
Display aspect ratio                     : 2.35:1
Frame rate                               : 23.976 fps
Color space                              : YUV
Chroma subsampling                       : 4:2:0
Bit depth                                : 8 bits
Scan type                                : Progressive
Compression mode                         : Lossy
Bits/(Pixel*Frame)                       : 0.192
Stream size                              : 597 MiB (85%)
Writing library                          : XviD 64

Audio
ID                                       : 1
Format                                   : MPEG Audio
Format version                           : Version 1
Format profile                           : Layer 3
Codec ID                                 : 55
Codec ID/Hint                            : MP3
Duration                                 : 1h 43mn
Bit rate mode                            : Constant
Bit rate                                 : 128 Kbps
Channel(s)                               : 2 channels
Sampling rate                            : 44.1 KHz
Compression mode                         : Lossy
Delay relative to video                  : 4ms
Stream size                              : 95.1 MiB (14%)
Alignment                                : Split accross interleaves
Interleave, duration                     : 42 ms (1.00 video frame)
Interleave, preload duration             : 500 ms
Writing library                          : LAME3.98.4

Un accidente de coche deja a Paige (Rachel McAdams) en coma. Cuando se despierta ha perdido la memoria, y ni siquiera reconoce a su marido Leo (Channing Tatum), con el que llevaba poco tiempo casada. Leo tendrá entonces que trabajar para ganarse de nuevo el corazón de su amada esposa


http://rapidgator.net/file/6687057/t_v0w.wapintekun10.avi.html


http://freakshare.com/files/7vddxqas/t_v0w.wapintekun10.avi.html

Filed Under: Dvd RipPeliculas

Tags:

About the Author:

RSSComments (0)

Trackback URL

Leave a Reply




If you want a picture to show with your comment, go get a Gravatar.